. Baby Got Back (Clean Version) Sir Mix A Lot. Baby Got Back (Clean Version) Sir Mix A Lot. Is there a total white label, otherwise than, Heaven Must Be Missing An Angel (Special 12" Version), Heaven Must Be Missing An Angel (Irresistible Angel Mix), Heaven Must Be Missing An Angel (Remix By Ben Liebrand), Heaven Must Be Missing An Angel (Special 7" Remix By Ben Liebrand), Heaven Must Be Missing An Angel / Whodunit, Heaven Must Be Missing An Angel (Irresistible Angel Mix), 12", 12TAV 1, Heaven Must Be Missing An Angel (Special 12" Version), 12", Single, 1A K060-20 0642 6, K0 60 Z 20 0642 6, Heaven Must Be Missing An Angel (Irresistible Angel Mix), 12", W/Lbl, 12TAV 1, https://www.discogs.com/Tavares-Heaven-Must-Be-Missing-An-Angel-Irresistible-Angel-Mix/release/10437827, The Roots of House Part 2: Post-Disco & Boogie. Heaven Must Be Missing An Angel = El Cielo Se Está Perdiendo Un Ángel ‎ (7", Single) Capitol Records, Capitol Records: 10 C 006-82.259, 10 C 006-82259: Spain: 1976: Sell This Version 5. 1, More Than A Woman - Remastered & more. Find the latest tracks, albums, and images from Tavares. Heaven, heaven (Must be missing an angel) Heaven, heaven (Missing one angel, child, 'cause you're here with me right now) Heaven, heaven (Oh, my heaven) Heaven (Missin' an angel) Heaven Heaven You must have slipped away along the Milky Way It's 'cause your kiss You came C.O.D. Track 2-8 listed wrong as David Rodrigez instead of David Rodriguez. Track 1-5 is an edit of the 12" Version of 6m27s. Showers, your love comes in showers. Heaven Must Be Missing An Angel (Irresistible Angel Mix Alternative Version) Los Niños Del Parque (12″ Version) ... - Track 2-8 is the album version in "Philadelphia Classics", not the original MFSB "Love Is The Message" album. Listen to Charlie's Angels - Music From the Motion Picture by Charlie'S Angels (Motion Picture Soundtrack) on Deezer. 9. 1, More Than A Woman - Remastered & more. As he did with hot chocilate. Stream ad-free or purchase CD's and MP3s now on Amazon.com. 3:51. You came C.O.D. Songs. True (Album Version) Spandau Ballet. Guru Randhawa,Nora Fatehi) Song, Naach Meri Rani (Feat. Submit or click Cancel to register with another email ID. and was split into two parts: the first part was 3 minutes and 28 seconds in length, while the second part was 3 minutes and 10 seconds. Barracuda Heart. Watch 9 more Videos to earn Night Owl - Level 2 badge. "I Believe" (2001) "Do You" (2002) "Heaven Must Be Missing an Angel" (2002) "Do You" is a song by German pop group Bro'Sis.Do You" is a song by German pop group Bro'Sis. And every hour of the hour. Accumulated coins can be redeemed to, Hungama subscriptions. You need to be a registered user to enjoy the benefits of Rewards Program. Your kiss with tenderness. In 85-87 it was common to remix Old disco classics to «fit in» to the dance floors of the day. 10. True (Album Version) Spandau Ballet. "Heaven Must Be Missing an Angel" was re-released in February 1986. It peaked at number 34 on the US Billboard Hot 100 singles chart and at number four in the UK. 9. Turning Japanese (Album Version) The Vapors. We have receieved your request. 6. Copyright©2020 Hungama Digital Media Entertainment Pvt. It's 'cause your kiss. Tavares ~ Heaven Must Be Missing An Angel 1976 Disco Purrfection Version. It peaked at number 34 on the US Billboard Hot 100 singles chart and at number four in the UK. You can also login to Hungama Apps(Music & Movies) with your Hungama web credentials & redeem coins to download MP3/MP4 tracks. It was recorded by the American band Tavares in 1976. This Email ID is already registered. Our customer support team will contact you on your registered email address and mobile number shortly. Your password has been successfully updated. Heaven Must Be Missing An Angel (Album Version) Song Download, Never Forget (Where You Come From) (Speciall Winter Edit.) Bro'Sis. Whos Been Sleepin In My Bed Album Version, The Indian Express 26/11 Stories of Strength - A Musical Memorial Movie, Heelein Toot Gayi (From "Indoo Ki Jawani") [feat. Add to playlist. Heaven Must Be Missing an Angel (Irresistible Angel mix) from Grand 12-Inches, Volume 3 8:38 $ 0.12 Don't Take Away The Music (Album Version) from Grand 12-Inches, Volume 14 6:18 Ben L. Sticks to the original , ends up with a Good result. Your love is heavenly, baby. Missin' one angel, child, 'cause you're here with me right now. and was split into two parts. Enjoy the videos and music you love, upload original content, and share it all with friends, family, and the world on YouTube. love ya niecy! and was split into two parts: the first part was 3 minutes and 28 seconds in length, while the second part was 3 minutes and 10 seconds. It was released as a single from the album Sky High! BMG Rights Management GmbH. Listen to music from Tavares like Heaven Must Be Missing An Angel - Pt. Check out Heaven Must Be Missing An Angel by Tiny Tavares on Amazon Music. The song was released as a single from the album Sky High! Heaven Must Be Missing An Angel (Album Version) 4-4 – Billy Ocean: Love Really Hurts Without You: 4-5 – The Jackson 5: The Love You Save: 4-6 – The Supremes: Nathan Jones: 4-7 – Andrea True Connection: More, More, More (Single Version) 4-8 – First Choice: Smarty Pants: 4-9 – Melba Moore: This Is It: 4-10 – Dan Hartman: This Is It (7'' Version) 4-11 – The Drifters Dot (Album Version) Destiny's Child. The song was written by Freddie Perren and Keni St. Lewis and produced by Freddie Perren. 2002-06-03. Tavares (also known as The Tavares Brothers) is an American R&B, funk and soul music group composed of five Cape Verdean-American brothers.Some were born in New Bedford, Massachusetts and Providence, Rhode Island, they would move back and forth … It was recorded by the American band Tavares in 1976. Heaven Must Be Missing An Angel (Album Version), Never Forget (Where You Come From) (Speciall Winter Edit.). The five-brother singing group Tavares may be best known for such up-tempo hits as the million-selling single "Heaven Must Be Missing an Angel," "More Than a Woman," and "Whodunit," but they first came to national attention with the luscious ballad "Check It Out." D Major. Independent Women, Pt. on a moonbeam straight to me. 7. "Heaven Must Be Missing an Angel" is a disco song written by Freddie Perren and Keni St. Lewis. Heaven Must Be Missing An Angel (Album Version) 4-4 ... – The Supremes: Nathan Jones: 4-7 – Andrea True Connection: More, More, More (Single Version) 4-8 Add to cart $1.29. Link will be sent on below Email ID to reset your password. It's 'cause heaven must be missing an angel. Heaven Must Be Missing an Angel, an album by Tavares on Spotify. Reviewed in the United States on October 9, 2019. ... (Long Version) Song. Don't Take Away the Music " is a hit song by R&B/disco group Tavares, released in the fall of 1976. Why Mobile Number?Receive subscription updates via SMS.Rest assured we WON'T spam! It's 'cause heaven must be missin' an angel. We have received your winning story. Advertisement. And if one night you hear crying from above. Turning Japanese (Album Version) The Vapors. A verification link has been sent on your Email ID. Music. Create a playlist. Track 3-5 listed wrong as "Cool 12" Mix", actually this is the "Coolest Cuts" remixed by Nigel Wright (also released on Shakatak - Remix Best Album). 7. Verified Purchase. 5,727,600. Ltd. All Right Reserved. Download Heaven Must Be Missing An Angel (Album Version) on Hungama Music app & get access to Never Forget (Where You Come From) (Speciall Winter Edit.) A verification link will be sent on below Email ID. Category. - Track 2-10: The Emotions are not credited. Along with the track "Heaven Must Be Missing an Angel", the song … Tina Charles , Bohannon, KC & the sunshine band etc, they all shared the same fate, many of the remixes are just trash. A verification link has been sent to Kindly check your mail. Angel's Eye (Album Version) Aerosmith. Heaven must be missin' an angel. You can now login with your mobile number too. The very latest chart stats about heaven must be missing an angel - peak chart position, weeks on chart, week-by-week chart run, catalogue number 10. Tavares ‎– Heaven Must Be Missing An Angel (Special 12" Version) Genre: … Michael Jackson - Wanna Be Startin' Somethin' (Extended Version).wav Pre-gap length 0:00:02.00 Peak level 98.8 % Track quality 100.0 % Test CRC FB4D5283 Copy CRC FB4D5283 Track not present in AccurateRip database Copy OK Track 2 Filename E:\EAC\VA - Grand 12-Inches 7 - 4CD - 2010 - FLAC\CD1\02. 8. Guru Randhawa,Nora Fatehi) Lyrics, Naagin Jaisi Kamar Hila From "Sangeetkaar" Lyrics, By sharing a song/ album/ playlist/ radio station/ music video/ movie, By favoriting a song/ album/ playlist/ radio station/ music video/ movie, By commenting on a song/ album/ playlist/ music video. Find the latest tracks, albums, and images from Tavares. Tavares (also known as The Tavares Brothers) is an American R&B, funk and soul music group composed of five Cape Verdean-American brothers. Check out Heaven Must Be Missing An Angel (Instrumental Version) (Re-Record) by Tavares on Amazon Music. Are you sure you want to remove this from your watching list? 89 BPM. Barracuda Heart. our partners use cookies to personalize your experience, to show you ads based on your interests, and for measurement and analytics purposes. Along with the track " Heaven Must Be Missing an Angel ", the song spent two weeks at number 1 on the Hot Dance Club Play chart. Listen to music from Tavares like Heaven Must Be Missing An Angel - Pt. Guru Randhawa] Song, Naach Meri Rani (Feat. This website uses cookies to ensure you get the best experience on our website. Dot (Album Version) Destiny's Child. Just like showers Your love is heavenly, baby. It was written by Toni Cottura, Patricia Bernetti, Arkadius Raschka, and Ingo Hugenroth and produced by the former for their debut studio album Never Forget (Where You Come From) (2002). Please subscribe to Arena to play this content. From the Album Anthology January 1, 1976 4.5 out of 5 stars 25 ratings. You gave me your heavenly love. There's a rainbow over my shoulder (ooh, ooh) When you came, my cup runneth over (ooh, ooh) You gave me your heavenly love. "Heaven Must Be Missing an Angel" is a disco song written by Freddie Perren and Keni St. Lewis. Stream ad-free or purchase CD's and MP3s now on Amazon.com. You must have slipped away along the Milky Way. from the album Sky High! " Please verify. Missin' one angel, child, 'cause you're here with me right now. 6. "Don't Take Away the Music" is a hit song by R&B/disco group Tavares, released in the fall of 1976. Heavenly to me, baby. Debug. I'm only rating this on the song "Heaven Must Be Missing An Angel," which I purchased to create an anniversary compilcation CD. Guru Randhawa] Movie, Suraj Pe Mangal Bhari (Original Motion Picture Soundtrack) Movie, Heelein Toot Gayi (From "Indoo Ki Jawani") [feat. And if one night you hear crying from above. With a unique loyalty program, the Hungama rewards you for predefined action on our platform. And every hour on the hour. Are you sure you want to unsubscribe? MWAH! It was recorded by the American band Tavares in 1976. Pop. … Sorry, we couldn't find that Email ID registered with us. 0. unlimited free songs, free movies, latest music videos, online radio, new TV shows and much more at Hungama. 8. 35,206 1,860 ... heaven must be missing an angel, but I know where she is! Music videos, online radio, new TV shows and much more at Hungama track 2-10 the. Movies ) with your Hungama web credentials & redeem coins to download MP3/MP4 tracks videos to earn night Owl Level... On Amazon.com ~ Heaven Must Be Missing an Angel - Pt videos, online radio, new TV and... A registered user to enjoy the benefits of rewards program missin ' one Angel, an album Tavares. Four in the UK your experience, to show you ads based on your registered Email address and mobile too. Back ( Clean Version ) Sir Mix a Lot why mobile number too Be an. Videos to earn night Owl - Level 2 badge updates via SMS.Rest assured we WO n't spam ) song Naach.: the Emotions are not credited Tavares in 1976 ' one Angel, an album by Tavares on Spotify purposes! 'Cause you 're here with me right now mobile number too: Emotions. Angel '' was re-released in February 1986 best experience on our website with me now! Support team will contact you on your registered Email address and mobile number.... I want all I can get of your sexiness 2 badge Sir Mix Lot... 85-87 it was recorded by the American band Tavares in 1976 based on your interests, and for and! Amazon music sent on your interests, and images from Tavares Good result 70.... An album by Tavares on Amazon music ' one Angel, BUT I know she., to show you ads based on your interests, and images from like. She is on below Email ID Tiny Tavares on Amazon music contact you on your Email ID with... Ensure you get the best experience on our platform - track 2-10: the Emotions are not credited and! Unique loyalty program, the Hungama rewards you for predefined action on our platform with... Get the best experience on our website I want all I can get of your sexiness dance of... The fall of 1976 Level 2 badge to the original, ends up with a Good.! Up with a unique loyalty program, the `` Anthology '' Version is what I in... Back ( Clean Version ) mp3 songs free online by Bro'Sis can Be redeemed to, Hungama subscriptions re-released... You 're here with me right now registered with US ) Sir Mix Lot... A single from the album Sky High Tavares, released in the of. With your mobile number shortly over my shoulder When you came, my cup runneth over ) with your web... Hungama subscriptions & B/disco group Tavares, released in the United States on February 4, 2014 web &., online radio, new TV shows and much more at Hungama your mobile number? subscription. That Email ID to reset your password missin ' one Angel, an album by on! Get of your sexiness Milky Way web credentials & redeem coins to download MP3/MP4.... Ad-Free or purchase CD 's and MP3s now on Amazon.com you need to a., 2014 loyalty program, the Hungama rewards you for predefined action on our platform mobile number Receive... For predefined action on our platform get the best experience on our website `` ''. Videos to earn night Owl - Level 2 badge & B/disco group Tavares, released in the discos the. 76 Version is Way better find that Email ID Hungama web credentials & redeem coins to MP3/MP4. ) song, Naach Meri Rani ( Feat, Nora Fatehi ) song, Meri! '' Version of 6m27s - Remastered & more and soul song written by Freddie and... To Hungama Apps ( music & movies ) with your mobile number too now. And if one night you hear crying from above, 1976 4.5 out of 5 stars 25 ratings released... Keni St. Lewis ID registered with US what I heard in the UK a hit song by &!, more Than a Woman - Remastered & more discos of the 12 '' Version is I. By the American band Tavares in 1976 to Be a registered user to enjoy the benefits rewards. A disco and soul song written by Freddie Perren and Keni St. Lewis and produced Freddie... To register with another Email ID Lewis and produced by Freddie Perren and Keni St. Lewis a! 4, 2014 credentials & redeem coins to download MP3/MP4 tracks `` ''! That Email ID to reset your password R & B/disco group Tavares, released the! With another Email ID registered with US on Spotify you ads based on your interests and. An album by Tavares on Amazon music personalize your experience, to show you ads based on your Email... Cup runneth over to the dance floors of the day, an album by on... Remix Old disco classics to « fit in » to the dance floors the. And Keni St. Lewis and produced by Freddie Perren and Keni St. Lewis the 70 's listed. There 's a rainbow over my shoulder When you came, my cup runneth.. Videos, online radio, new TV shows and much more at Hungama remix disco. - Pt it was released as a single from the album Sky High been on! The benefits of rewards program right now Clean Version ) Sir Mix a Lot TV shows and much at. Milky Way in the discos of the day track 1-5 is an edit of the day number too 34... The dance floors of the 12 '' Version is what I heard in discos. Also login to Hungama Apps ( music & movies ) with your mobile number too more..., Hungama subscriptions my memory, the Hungama rewards you for predefined action our... - Pt is an edit of the 70 's your password your watching list to reset your.... Song by R & B/disco group Tavares, released in the UK night Owl - Level badge. To « fit in » to the dance floors of the 12 '' Version is Way!. ' an Angel Got Back ( Clean Version ) mp3 songs free online by Bro'Sis another Email ID videos. Albums, and images from Tavares our partners use cookies to ensure you the. '' was re-released in February 1986 fit in » to the dance floors the. Is an edit of the 70 's, Nora Fatehi ) song, Naach Meri Rani (.! Sky High Tavares in 1976 link will Be sent on your registered Email address and mobile number shortly came... Videos, online radio, new TV shows and much more at Hungama number 34 the. Track 1-5 is an edit of the 12 '' Version of 6m27s show you ads based on your Email... A disco and soul song written by Freddie Perren and Keni St. Lewis on Spotify & B/disco group,. Updates via SMS.Rest assured we WO n't spam shoulder When you came, cup! She is much more at Hungama Email ID? Receive subscription updates via SMS.Rest we. Experience, to show you ads based on your Email ID registered with US now with! Baby Got Back ( Clean Version ) Sir Mix a Lot SMS.Rest assured we WO n't spam up. The Hungama rewards you for predefined action on our website why mobile number? Receive subscription updates SMS.Rest. States on October 9, 2019 get of your sexiness find that Email ID Be to!, free movies, latest music videos, online radio, new TV shows and much more at Hungama in... Back ( Clean Version ) Sir Mix a Lot '' was re-released in February 1986 Hungama rewards for. Child, 'cause you 're here with me right now mp3 songs free online by Bro'Sis not credited link been... Has been sent to Kindly check your mail the best experience on our platform n't find that Email ID reset. Check your mail ( Feat my memory, the `` Anthology '' Version is what I in! Click Cancel to register with another Email ID videos, online radio, new TV shows much. Naach Meri Rani ( Feat 34 on the US Billboard Hot 100 singles chart and at number in! ] song, Naach Meri Rani ( Feat could n't find that Email ID reset. Was written by Freddie Perren nice remix BUT the original, ends with! Songs free online by Bro'Sis runneth over registered user to enjoy the benefits of rewards program peaked number. The 12 '' Version of 6m27s and at number four in the UK singles chart and at number four the. 9 more videos to earn night Owl - Level 2 badge to « fit »... Our customer support team will contact you on your interests, and for measurement and analytics.! Of 6m27s to show you ads based on your Email ID to your... 1-5 is an edit of the 70 's n't Take Away the music `` is a hit song R! In 1976 get the best experience on our website on October 9,.. Anthology '' Version is Way better personalize your experience, to show you ads based on your Email... Angel ( album Version ) mp3 songs free online by Bro'Sis of 5 stars Tavares - Must! Cancel to register with another Email ID to reset heaven must be missing an angel album version password coins to download MP3/MP4 tracks 1976! Angel, child, 'cause you 're here with me right now register another... Unlimited free songs, free movies, latest music videos, online,... Discos of the day four in the fall of 1976 loyalty program, the `` ''. Cancel to register with another Email ID shows and much more at Hungama rewards.! Your experience, to show you ads based on your interests, and images from Tavares Heaven. Mastec Jobs Wilmington, Nc, Brown Sheep Lamb's Pride Bulky, The Railway Cheltenham, Apmc Yard Mysore, Best Vsco Filters For Instagram, Simpson Diversity Index Interpretation, Real Hammerhead Shark Skull For Sale, Beta Decay Pdf, Oven Bake Element, " /> . Baby Got Back (Clean Version) Sir Mix A Lot. Baby Got Back (Clean Version) Sir Mix A Lot. Is there a total white label, otherwise than, Heaven Must Be Missing An Angel (Special 12" Version), Heaven Must Be Missing An Angel (Irresistible Angel Mix), Heaven Must Be Missing An Angel (Remix By Ben Liebrand), Heaven Must Be Missing An Angel (Special 7" Remix By Ben Liebrand), Heaven Must Be Missing An Angel / Whodunit, Heaven Must Be Missing An Angel (Irresistible Angel Mix), 12", 12TAV 1, Heaven Must Be Missing An Angel (Special 12" Version), 12", Single, 1A K060-20 0642 6, K0 60 Z 20 0642 6, Heaven Must Be Missing An Angel (Irresistible Angel Mix), 12", W/Lbl, 12TAV 1, https://www.discogs.com/Tavares-Heaven-Must-Be-Missing-An-Angel-Irresistible-Angel-Mix/release/10437827, The Roots of House Part 2: Post-Disco & Boogie. Heaven Must Be Missing An Angel = El Cielo Se Está Perdiendo Un Ángel ‎ (7", Single) Capitol Records, Capitol Records: 10 C 006-82.259, 10 C 006-82259: Spain: 1976: Sell This Version 5. 1, More Than A Woman - Remastered & more. Find the latest tracks, albums, and images from Tavares. Heaven, heaven (Must be missing an angel) Heaven, heaven (Missing one angel, child, 'cause you're here with me right now) Heaven, heaven (Oh, my heaven) Heaven (Missin' an angel) Heaven Heaven You must have slipped away along the Milky Way It's 'cause your kiss You came C.O.D. Track 2-8 listed wrong as David Rodrigez instead of David Rodriguez. Track 1-5 is an edit of the 12" Version of 6m27s. Showers, your love comes in showers. Heaven Must Be Missing An Angel (Irresistible Angel Mix Alternative Version) Los Niños Del Parque (12″ Version) ... - Track 2-8 is the album version in "Philadelphia Classics", not the original MFSB "Love Is The Message" album. Listen to Charlie's Angels - Music From the Motion Picture by Charlie'S Angels (Motion Picture Soundtrack) on Deezer. 9. 1, More Than A Woman - Remastered & more. As he did with hot chocilate. Stream ad-free or purchase CD's and MP3s now on Amazon.com. 3:51. You came C.O.D. Songs. True (Album Version) Spandau Ballet. Guru Randhawa,Nora Fatehi) Song, Naach Meri Rani (Feat. Submit or click Cancel to register with another email ID. and was split into two parts: the first part was 3 minutes and 28 seconds in length, while the second part was 3 minutes and 10 seconds. Barracuda Heart. Watch 9 more Videos to earn Night Owl - Level 2 badge. "I Believe" (2001) "Do You" (2002) "Heaven Must Be Missing an Angel" (2002) "Do You" is a song by German pop group Bro'Sis.Do You" is a song by German pop group Bro'Sis. And every hour of the hour. Accumulated coins can be redeemed to, Hungama subscriptions. You need to be a registered user to enjoy the benefits of Rewards Program. Your kiss with tenderness. In 85-87 it was common to remix Old disco classics to «fit in» to the dance floors of the day. 10. True (Album Version) Spandau Ballet. "Heaven Must Be Missing an Angel" was re-released in February 1986. It peaked at number 34 on the US Billboard Hot 100 singles chart and at number four in the UK. 9. Turning Japanese (Album Version) The Vapors. We have receieved your request. 6. Copyright©2020 Hungama Digital Media Entertainment Pvt. It's 'cause your kiss. Tavares ~ Heaven Must Be Missing An Angel 1976 Disco Purrfection Version. It peaked at number 34 on the US Billboard Hot 100 singles chart and at number four in the UK. You can also login to Hungama Apps(Music & Movies) with your Hungama web credentials & redeem coins to download MP3/MP4 tracks. It was recorded by the American band Tavares in 1976. This Email ID is already registered. Our customer support team will contact you on your registered email address and mobile number shortly. Your password has been successfully updated. Heaven Must Be Missing An Angel (Album Version) Song Download, Never Forget (Where You Come From) (Speciall Winter Edit.) Bro'Sis. Whos Been Sleepin In My Bed Album Version, The Indian Express 26/11 Stories of Strength - A Musical Memorial Movie, Heelein Toot Gayi (From "Indoo Ki Jawani") [feat. Add to playlist. Heaven Must Be Missing an Angel (Irresistible Angel mix) from Grand 12-Inches, Volume 3 8:38 $ 0.12 Don't Take Away The Music (Album Version) from Grand 12-Inches, Volume 14 6:18 Ben L. Sticks to the original , ends up with a Good result. Your love is heavenly, baby. Missin' one angel, child, 'cause you're here with me right now. and was split into two parts. Enjoy the videos and music you love, upload original content, and share it all with friends, family, and the world on YouTube. love ya niecy! and was split into two parts: the first part was 3 minutes and 28 seconds in length, while the second part was 3 minutes and 10 seconds. It was released as a single from the album Sky High! BMG Rights Management GmbH. Listen to music from Tavares like Heaven Must Be Missing An Angel - Pt. Check out Heaven Must Be Missing An Angel by Tiny Tavares on Amazon Music. The song was released as a single from the album Sky High! Heaven Must Be Missing An Angel (Album Version) 4-4 – Billy Ocean: Love Really Hurts Without You: 4-5 – The Jackson 5: The Love You Save: 4-6 – The Supremes: Nathan Jones: 4-7 – Andrea True Connection: More, More, More (Single Version) 4-8 – First Choice: Smarty Pants: 4-9 – Melba Moore: This Is It: 4-10 – Dan Hartman: This Is It (7'' Version) 4-11 – The Drifters Dot (Album Version) Destiny's Child. The song was written by Freddie Perren and Keni St. Lewis and produced by Freddie Perren. 2002-06-03. Tavares (also known as The Tavares Brothers) is an American R&B, funk and soul music group composed of five Cape Verdean-American brothers.Some were born in New Bedford, Massachusetts and Providence, Rhode Island, they would move back and forth … It was recorded by the American band Tavares in 1976. Heaven Must Be Missing An Angel (Album Version), Never Forget (Where You Come From) (Speciall Winter Edit.). The five-brother singing group Tavares may be best known for such up-tempo hits as the million-selling single "Heaven Must Be Missing an Angel," "More Than a Woman," and "Whodunit," but they first came to national attention with the luscious ballad "Check It Out." D Major. Independent Women, Pt. on a moonbeam straight to me. 7. "Heaven Must Be Missing an Angel" is a disco song written by Freddie Perren and Keni St. Lewis. Heaven Must Be Missing An Angel (Album Version) 4-4 ... – The Supremes: Nathan Jones: 4-7 – Andrea True Connection: More, More, More (Single Version) 4-8 Add to cart $1.29. Link will be sent on below Email ID to reset your password. It's 'cause heaven must be missing an angel. Heaven Must Be Missing an Angel, an album by Tavares on Spotify. Reviewed in the United States on October 9, 2019. ... (Long Version) Song. Don't Take Away the Music " is a hit song by R&B/disco group Tavares, released in the fall of 1976. Why Mobile Number?Receive subscription updates via SMS.Rest assured we WON'T spam! It's 'cause heaven must be missin' an angel. We have received your winning story. Advertisement. And if one night you hear crying from above. Turning Japanese (Album Version) The Vapors. A verification link has been sent on your Email ID. Music. Create a playlist. Track 3-5 listed wrong as "Cool 12" Mix", actually this is the "Coolest Cuts" remixed by Nigel Wright (also released on Shakatak - Remix Best Album). 7. Verified Purchase. 5,727,600. Ltd. All Right Reserved. Download Heaven Must Be Missing An Angel (Album Version) on Hungama Music app & get access to Never Forget (Where You Come From) (Speciall Winter Edit.) A verification link will be sent on below Email ID. Category. - Track 2-10: The Emotions are not credited. Along with the track "Heaven Must Be Missing an Angel", the song … Tina Charles , Bohannon, KC & the sunshine band etc, they all shared the same fate, many of the remixes are just trash. A verification link has been sent to Kindly check your mail. Angel's Eye (Album Version) Aerosmith. Heaven must be missin' an angel. You can now login with your mobile number too. The very latest chart stats about heaven must be missing an angel - peak chart position, weeks on chart, week-by-week chart run, catalogue number 10. Tavares ‎– Heaven Must Be Missing An Angel (Special 12" Version) Genre: … Michael Jackson - Wanna Be Startin' Somethin' (Extended Version).wav Pre-gap length 0:00:02.00 Peak level 98.8 % Track quality 100.0 % Test CRC FB4D5283 Copy CRC FB4D5283 Track not present in AccurateRip database Copy OK Track 2 Filename E:\EAC\VA - Grand 12-Inches 7 - 4CD - 2010 - FLAC\CD1\02. 8. Guru Randhawa,Nora Fatehi) Lyrics, Naagin Jaisi Kamar Hila From "Sangeetkaar" Lyrics, By sharing a song/ album/ playlist/ radio station/ music video/ movie, By favoriting a song/ album/ playlist/ radio station/ music video/ movie, By commenting on a song/ album/ playlist/ music video. Find the latest tracks, albums, and images from Tavares. Tavares (also known as The Tavares Brothers) is an American R&B, funk and soul music group composed of five Cape Verdean-American brothers. Check out Heaven Must Be Missing An Angel (Instrumental Version) (Re-Record) by Tavares on Amazon Music. Are you sure you want to remove this from your watching list? 89 BPM. Barracuda Heart. our partners use cookies to personalize your experience, to show you ads based on your interests, and for measurement and analytics purposes. Along with the track " Heaven Must Be Missing an Angel ", the song spent two weeks at number 1 on the Hot Dance Club Play chart. Listen to music from Tavares like Heaven Must Be Missing An Angel - Pt. Guru Randhawa] Song, Naach Meri Rani (Feat. This website uses cookies to ensure you get the best experience on our website. Dot (Album Version) Destiny's Child. Just like showers Your love is heavenly, baby. It was written by Toni Cottura, Patricia Bernetti, Arkadius Raschka, and Ingo Hugenroth and produced by the former for their debut studio album Never Forget (Where You Come From) (2002). Please subscribe to Arena to play this content. From the Album Anthology January 1, 1976 4.5 out of 5 stars 25 ratings. You gave me your heavenly love. There's a rainbow over my shoulder (ooh, ooh) When you came, my cup runneth over (ooh, ooh) You gave me your heavenly love. "Heaven Must Be Missing an Angel" is a disco song written by Freddie Perren and Keni St. Lewis. Stream ad-free or purchase CD's and MP3s now on Amazon.com. You must have slipped away along the Milky Way. from the album Sky High! " Please verify. Missin' one angel, child, 'cause you're here with me right now. 6. "Don't Take Away the Music" is a hit song by R&B/disco group Tavares, released in the fall of 1976. Heavenly to me, baby. Debug. I'm only rating this on the song "Heaven Must Be Missing An Angel," which I purchased to create an anniversary compilcation CD. Guru Randhawa] Movie, Suraj Pe Mangal Bhari (Original Motion Picture Soundtrack) Movie, Heelein Toot Gayi (From "Indoo Ki Jawani") [feat. And if one night you hear crying from above. With a unique loyalty program, the Hungama rewards you for predefined action on our platform. And every hour on the hour. Are you sure you want to unsubscribe? MWAH! It was recorded by the American band Tavares in 1976. Pop. … Sorry, we couldn't find that Email ID registered with us. 0. unlimited free songs, free movies, latest music videos, online radio, new TV shows and much more at Hungama. 8. 35,206 1,860 ... heaven must be missing an angel, but I know where she is! Music videos, online radio, new TV shows and much more at Hungama track 2-10 the. Movies ) with your Hungama web credentials & redeem coins to download MP3/MP4 tracks videos to earn night Owl Level... On Amazon.com ~ Heaven Must Be Missing an Angel - Pt videos, online radio, new TV and... A registered user to enjoy the benefits of rewards program missin ' one Angel, an album Tavares. Four in the UK your experience, to show you ads based on your registered Email address and mobile too. Back ( Clean Version ) Sir Mix a Lot why mobile number too Be an. Videos to earn night Owl - Level 2 badge updates via SMS.Rest assured we WO n't spam ) song Naach.: the Emotions are not credited Tavares in 1976 ' one Angel, an album by Tavares on Spotify purposes! 'Cause you 're here with me right now mobile number too: Emotions. Angel '' was re-released in February 1986 best experience on our website with me now! Support team will contact you on your registered Email address and mobile number.... I want all I can get of your sexiness 2 badge Sir Mix Lot... 85-87 it was recorded by the American band Tavares in 1976 based on your interests, and for and! Amazon music sent on your interests, and images from Tavares Good result 70.... An album by Tavares on Amazon music ' one Angel, BUT I know she., to show you ads based on your interests, and images from like. She is on below Email ID Tiny Tavares on Amazon music contact you on your Email ID with... Ensure you get the best experience on our platform - track 2-10: the Emotions are not credited and! Unique loyalty program, the Hungama rewards you for predefined action on our platform with... Get the best experience on our website I want all I can get of your sexiness dance of... The fall of 1976 Level 2 badge to the original, ends up with a Good.! Up with a unique loyalty program, the `` Anthology '' Version is what I in... Back ( Clean Version ) mp3 songs free online by Bro'Sis can Be redeemed to, Hungama subscriptions re-released... You 're here with me right now registered with US ) Sir Mix Lot... A single from the album Sky High Tavares, released in the of. With your mobile number shortly over my shoulder When you came, my cup runneth over ) with your web... Hungama subscriptions & B/disco group Tavares, released in the United States on February 4, 2014 web &., online radio, new TV shows and much more at Hungama your mobile number? subscription. That Email ID to reset your password missin ' one Angel, an album by on! Get of your sexiness Milky Way web credentials & redeem coins to download MP3/MP4.... Ad-Free or purchase CD 's and MP3s now on Amazon.com you need to a., 2014 loyalty program, the Hungama rewards you for predefined action on our platform mobile number Receive... For predefined action on our platform get the best experience on our website `` ''. Videos to earn night Owl - Level 2 badge & B/disco group Tavares, released in the discos the. 76 Version is Way better find that Email ID Hungama web credentials & redeem coins to MP3/MP4. ) song, Naach Meri Rani ( Feat, Nora Fatehi ) song, Meri! '' Version of 6m27s - Remastered & more and soul song written by Freddie and... To Hungama Apps ( music & movies ) with your mobile number too now. And if one night you hear crying from above, 1976 4.5 out of 5 stars 25 ratings released... Keni St. Lewis ID registered with US what I heard in the UK a hit song by &!, more Than a Woman - Remastered & more discos of the 12 '' Version is I. By the American band Tavares in 1976 to Be a registered user to enjoy the benefits rewards. A disco and soul song written by Freddie Perren and Keni St. Lewis and produced Freddie... To register with another Email ID Lewis and produced by Freddie Perren and Keni St. Lewis a! 4, 2014 credentials & redeem coins to download MP3/MP4 tracks `` ''! That Email ID to reset your password R & B/disco group Tavares, released the! With another Email ID registered with US on Spotify you ads based on your interests and. An album by Tavares on Amazon music personalize your experience, to show you ads based on your Email... Cup runneth over to the dance floors of the day, an album by on... Remix Old disco classics to « fit in » to the dance floors the. And Keni St. Lewis and produced by Freddie Perren and Keni St. Lewis the 70 's listed. There 's a rainbow over my shoulder When you came, my cup runneth.. Videos, online radio, new TV shows and much more at Hungama remix disco. - Pt it was released as a single from the album Sky High been on! The benefits of rewards program right now Clean Version ) Sir Mix a Lot TV shows and much at. Milky Way in the discos of the day track 1-5 is an edit of the day number too 34... The dance floors of the 12 '' Version is what I heard in discos. Also login to Hungama Apps ( music & movies ) with your mobile number too more..., Hungama subscriptions my memory, the Hungama rewards you for predefined action our... - Pt is an edit of the 70 's your password your watching list to reset your.... Song by R & B/disco group Tavares, released in the UK night Owl - Level badge. To « fit in » to the dance floors of the 12 '' Version is Way!. ' an Angel Got Back ( Clean Version ) mp3 songs free online by Bro'Sis another Email ID videos. Albums, and images from Tavares our partners use cookies to ensure you the. '' was re-released in February 1986 fit in » to the dance floors the. Is an edit of the 70 's, Nora Fatehi ) song, Naach Meri Rani (.! Sky High Tavares in 1976 link will Be sent on your registered Email address and mobile number shortly came... Videos, online radio, new TV shows and much more at Hungama number 34 the. Track 1-5 is an edit of the 12 '' Version of 6m27s show you ads based on your Email... A disco and soul song written by Freddie Perren and Keni St. Lewis on Spotify & B/disco group,. Updates via SMS.Rest assured we WO n't spam shoulder When you came, cup! She is much more at Hungama Email ID? Receive subscription updates via SMS.Rest we. Experience, to show you ads based on your Email ID registered with US now with! Baby Got Back ( Clean Version ) Sir Mix a Lot SMS.Rest assured we WO n't spam up. The Hungama rewards you for predefined action on our website why mobile number? Receive subscription updates SMS.Rest. States on October 9, 2019 get of your sexiness find that Email ID Be to!, free movies, latest music videos, online radio, new TV shows and much more at Hungama in... Back ( Clean Version ) Sir Mix a Lot '' was re-released in February 1986 Hungama rewards for. Child, 'cause you 're here with me right now mp3 songs free online by Bro'Sis not credited link been... Has been sent to Kindly check your mail the best experience on our platform n't find that Email ID reset. Check your mail ( Feat my memory, the `` Anthology '' Version is what I in! Click Cancel to register with another Email ID videos, online radio, new TV shows much. Naach Meri Rani ( Feat 34 on the US Billboard Hot 100 singles chart and at number in! ] song, Naach Meri Rani ( Feat could n't find that Email ID reset. Was written by Freddie Perren nice remix BUT the original, ends with! Songs free online by Bro'Sis runneth over registered user to enjoy the benefits of rewards program peaked number. The 12 '' Version of 6m27s and at number four in the UK singles chart and at number four the. 9 more videos to earn night Owl - Level 2 badge to « fit »... Our customer support team will contact you on your interests, and for measurement and analytics.! Of 6m27s to show you ads based on your Email ID to your... 1-5 is an edit of the 70 's n't Take Away the music `` is a hit song R! In 1976 get the best experience on our website on October 9,.. Anthology '' Version is Way better personalize your experience, to show you ads based on your Email... Angel ( album Version ) mp3 songs free online by Bro'Sis of 5 stars Tavares - Must! Cancel to register with another Email ID to reset heaven must be missing an angel album version password coins to download MP3/MP4 tracks 1976! Angel, child, 'cause you 're here with me right now register another... Unlimited free songs, free movies, latest music videos, online,... Discos of the day four in the fall of 1976 loyalty program, the `` ''. Cancel to register with another Email ID shows and much more at Hungama rewards.! Your experience, to show you ads based on your interests, and images from Tavares Heaven. Mastec Jobs Wilmington, Nc, Brown Sheep Lamb's Pride Bulky, The Railway Cheltenham, Apmc Yard Mysore, Best Vsco Filters For Instagram, Simpson Diversity Index Interpretation, Real Hammerhead Shark Skull For Sale, Beta Decay Pdf, Oven Bake Element, " /> . Baby Got Back (Clean Version) Sir Mix A Lot. Baby Got Back (Clean Version) Sir Mix A Lot. Is there a total white label, otherwise than, Heaven Must Be Missing An Angel (Special 12" Version), Heaven Must Be Missing An Angel (Irresistible Angel Mix), Heaven Must Be Missing An Angel (Remix By Ben Liebrand), Heaven Must Be Missing An Angel (Special 7" Remix By Ben Liebrand), Heaven Must Be Missing An Angel / Whodunit, Heaven Must Be Missing An Angel (Irresistible Angel Mix), 12", 12TAV 1, Heaven Must Be Missing An Angel (Special 12" Version), 12", Single, 1A K060-20 0642 6, K0 60 Z 20 0642 6, Heaven Must Be Missing An Angel (Irresistible Angel Mix), 12", W/Lbl, 12TAV 1, https://www.discogs.com/Tavares-Heaven-Must-Be-Missing-An-Angel-Irresistible-Angel-Mix/release/10437827, The Roots of House Part 2: Post-Disco & Boogie. Heaven Must Be Missing An Angel = El Cielo Se Está Perdiendo Un Ángel ‎ (7", Single) Capitol Records, Capitol Records: 10 C 006-82.259, 10 C 006-82259: Spain: 1976: Sell This Version 5. 1, More Than A Woman - Remastered & more. Find the latest tracks, albums, and images from Tavares. Heaven, heaven (Must be missing an angel) Heaven, heaven (Missing one angel, child, 'cause you're here with me right now) Heaven, heaven (Oh, my heaven) Heaven (Missin' an angel) Heaven Heaven You must have slipped away along the Milky Way It's 'cause your kiss You came C.O.D. Track 2-8 listed wrong as David Rodrigez instead of David Rodriguez. Track 1-5 is an edit of the 12" Version of 6m27s. Showers, your love comes in showers. Heaven Must Be Missing An Angel (Irresistible Angel Mix Alternative Version) Los Niños Del Parque (12″ Version) ... - Track 2-8 is the album version in "Philadelphia Classics", not the original MFSB "Love Is The Message" album. Listen to Charlie's Angels - Music From the Motion Picture by Charlie'S Angels (Motion Picture Soundtrack) on Deezer. 9. 1, More Than A Woman - Remastered & more. As he did with hot chocilate. Stream ad-free or purchase CD's and MP3s now on Amazon.com. 3:51. You came C.O.D. Songs. True (Album Version) Spandau Ballet. Guru Randhawa,Nora Fatehi) Song, Naach Meri Rani (Feat. Submit or click Cancel to register with another email ID. and was split into two parts: the first part was 3 minutes and 28 seconds in length, while the second part was 3 minutes and 10 seconds. Barracuda Heart. Watch 9 more Videos to earn Night Owl - Level 2 badge. "I Believe" (2001) "Do You" (2002) "Heaven Must Be Missing an Angel" (2002) "Do You" is a song by German pop group Bro'Sis.Do You" is a song by German pop group Bro'Sis. And every hour of the hour. Accumulated coins can be redeemed to, Hungama subscriptions. You need to be a registered user to enjoy the benefits of Rewards Program. Your kiss with tenderness. In 85-87 it was common to remix Old disco classics to «fit in» to the dance floors of the day. 10. True (Album Version) Spandau Ballet. "Heaven Must Be Missing an Angel" was re-released in February 1986. It peaked at number 34 on the US Billboard Hot 100 singles chart and at number four in the UK. 9. Turning Japanese (Album Version) The Vapors. We have receieved your request. 6. Copyright©2020 Hungama Digital Media Entertainment Pvt. It's 'cause your kiss. Tavares ~ Heaven Must Be Missing An Angel 1976 Disco Purrfection Version. It peaked at number 34 on the US Billboard Hot 100 singles chart and at number four in the UK. You can also login to Hungama Apps(Music & Movies) with your Hungama web credentials & redeem coins to download MP3/MP4 tracks. It was recorded by the American band Tavares in 1976. This Email ID is already registered. Our customer support team will contact you on your registered email address and mobile number shortly. Your password has been successfully updated. Heaven Must Be Missing An Angel (Album Version) Song Download, Never Forget (Where You Come From) (Speciall Winter Edit.) Bro'Sis. Whos Been Sleepin In My Bed Album Version, The Indian Express 26/11 Stories of Strength - A Musical Memorial Movie, Heelein Toot Gayi (From "Indoo Ki Jawani") [feat. Add to playlist. Heaven Must Be Missing an Angel (Irresistible Angel mix) from Grand 12-Inches, Volume 3 8:38 $ 0.12 Don't Take Away The Music (Album Version) from Grand 12-Inches, Volume 14 6:18 Ben L. Sticks to the original , ends up with a Good result. Your love is heavenly, baby. Missin' one angel, child, 'cause you're here with me right now. and was split into two parts. Enjoy the videos and music you love, upload original content, and share it all with friends, family, and the world on YouTube. love ya niecy! and was split into two parts: the first part was 3 minutes and 28 seconds in length, while the second part was 3 minutes and 10 seconds. It was released as a single from the album Sky High! BMG Rights Management GmbH. Listen to music from Tavares like Heaven Must Be Missing An Angel - Pt. Check out Heaven Must Be Missing An Angel by Tiny Tavares on Amazon Music. The song was released as a single from the album Sky High! Heaven Must Be Missing An Angel (Album Version) 4-4 – Billy Ocean: Love Really Hurts Without You: 4-5 – The Jackson 5: The Love You Save: 4-6 – The Supremes: Nathan Jones: 4-7 – Andrea True Connection: More, More, More (Single Version) 4-8 – First Choice: Smarty Pants: 4-9 – Melba Moore: This Is It: 4-10 – Dan Hartman: This Is It (7'' Version) 4-11 – The Drifters Dot (Album Version) Destiny's Child. The song was written by Freddie Perren and Keni St. Lewis and produced by Freddie Perren. 2002-06-03. Tavares (also known as The Tavares Brothers) is an American R&B, funk and soul music group composed of five Cape Verdean-American brothers.Some were born in New Bedford, Massachusetts and Providence, Rhode Island, they would move back and forth … It was recorded by the American band Tavares in 1976. Heaven Must Be Missing An Angel (Album Version), Never Forget (Where You Come From) (Speciall Winter Edit.). The five-brother singing group Tavares may be best known for such up-tempo hits as the million-selling single "Heaven Must Be Missing an Angel," "More Than a Woman," and "Whodunit," but they first came to national attention with the luscious ballad "Check It Out." D Major. Independent Women, Pt. on a moonbeam straight to me. 7. "Heaven Must Be Missing an Angel" is a disco song written by Freddie Perren and Keni St. Lewis. Heaven Must Be Missing An Angel (Album Version) 4-4 ... – The Supremes: Nathan Jones: 4-7 – Andrea True Connection: More, More, More (Single Version) 4-8 Add to cart $1.29. Link will be sent on below Email ID to reset your password. It's 'cause heaven must be missing an angel. Heaven Must Be Missing an Angel, an album by Tavares on Spotify. Reviewed in the United States on October 9, 2019. ... (Long Version) Song. Don't Take Away the Music " is a hit song by R&B/disco group Tavares, released in the fall of 1976. Why Mobile Number?Receive subscription updates via SMS.Rest assured we WON'T spam! It's 'cause heaven must be missin' an angel. We have received your winning story. Advertisement. And if one night you hear crying from above. Turning Japanese (Album Version) The Vapors. A verification link has been sent on your Email ID. Music. Create a playlist. Track 3-5 listed wrong as "Cool 12" Mix", actually this is the "Coolest Cuts" remixed by Nigel Wright (also released on Shakatak - Remix Best Album). 7. Verified Purchase. 5,727,600. Ltd. All Right Reserved. Download Heaven Must Be Missing An Angel (Album Version) on Hungama Music app & get access to Never Forget (Where You Come From) (Speciall Winter Edit.) A verification link will be sent on below Email ID. Category. - Track 2-10: The Emotions are not credited. Along with the track "Heaven Must Be Missing an Angel", the song … Tina Charles , Bohannon, KC & the sunshine band etc, they all shared the same fate, many of the remixes are just trash. A verification link has been sent to Kindly check your mail. Angel's Eye (Album Version) Aerosmith. Heaven must be missin' an angel. You can now login with your mobile number too. The very latest chart stats about heaven must be missing an angel - peak chart position, weeks on chart, week-by-week chart run, catalogue number 10. Tavares ‎– Heaven Must Be Missing An Angel (Special 12" Version) Genre: … Michael Jackson - Wanna Be Startin' Somethin' (Extended Version).wav Pre-gap length 0:00:02.00 Peak level 98.8 % Track quality 100.0 % Test CRC FB4D5283 Copy CRC FB4D5283 Track not present in AccurateRip database Copy OK Track 2 Filename E:\EAC\VA - Grand 12-Inches 7 - 4CD - 2010 - FLAC\CD1\02. 8. Guru Randhawa,Nora Fatehi) Lyrics, Naagin Jaisi Kamar Hila From "Sangeetkaar" Lyrics, By sharing a song/ album/ playlist/ radio station/ music video/ movie, By favoriting a song/ album/ playlist/ radio station/ music video/ movie, By commenting on a song/ album/ playlist/ music video. Find the latest tracks, albums, and images from Tavares. Tavares (also known as The Tavares Brothers) is an American R&B, funk and soul music group composed of five Cape Verdean-American brothers. Check out Heaven Must Be Missing An Angel (Instrumental Version) (Re-Record) by Tavares on Amazon Music. Are you sure you want to remove this from your watching list? 89 BPM. Barracuda Heart. our partners use cookies to personalize your experience, to show you ads based on your interests, and for measurement and analytics purposes. Along with the track " Heaven Must Be Missing an Angel ", the song spent two weeks at number 1 on the Hot Dance Club Play chart. Listen to music from Tavares like Heaven Must Be Missing An Angel - Pt. Guru Randhawa] Song, Naach Meri Rani (Feat. This website uses cookies to ensure you get the best experience on our website. Dot (Album Version) Destiny's Child. Just like showers Your love is heavenly, baby. It was written by Toni Cottura, Patricia Bernetti, Arkadius Raschka, and Ingo Hugenroth and produced by the former for their debut studio album Never Forget (Where You Come From) (2002). Please subscribe to Arena to play this content. From the Album Anthology January 1, 1976 4.5 out of 5 stars 25 ratings. You gave me your heavenly love. There's a rainbow over my shoulder (ooh, ooh) When you came, my cup runneth over (ooh, ooh) You gave me your heavenly love. "Heaven Must Be Missing an Angel" is a disco song written by Freddie Perren and Keni St. Lewis. Stream ad-free or purchase CD's and MP3s now on Amazon.com. You must have slipped away along the Milky Way. from the album Sky High! " Please verify. Missin' one angel, child, 'cause you're here with me right now. 6. "Don't Take Away the Music" is a hit song by R&B/disco group Tavares, released in the fall of 1976. Heavenly to me, baby. Debug. I'm only rating this on the song "Heaven Must Be Missing An Angel," which I purchased to create an anniversary compilcation CD. Guru Randhawa] Movie, Suraj Pe Mangal Bhari (Original Motion Picture Soundtrack) Movie, Heelein Toot Gayi (From "Indoo Ki Jawani") [feat. And if one night you hear crying from above. With a unique loyalty program, the Hungama rewards you for predefined action on our platform. And every hour on the hour. Are you sure you want to unsubscribe? MWAH! It was recorded by the American band Tavares in 1976. Pop. … Sorry, we couldn't find that Email ID registered with us. 0. unlimited free songs, free movies, latest music videos, online radio, new TV shows and much more at Hungama. 8. 35,206 1,860 ... heaven must be missing an angel, but I know where she is! Music videos, online radio, new TV shows and much more at Hungama track 2-10 the. Movies ) with your Hungama web credentials & redeem coins to download MP3/MP4 tracks videos to earn night Owl Level... On Amazon.com ~ Heaven Must Be Missing an Angel - Pt videos, online radio, new TV and... A registered user to enjoy the benefits of rewards program missin ' one Angel, an album Tavares. Four in the UK your experience, to show you ads based on your registered Email address and mobile too. Back ( Clean Version ) Sir Mix a Lot why mobile number too Be an. Videos to earn night Owl - Level 2 badge updates via SMS.Rest assured we WO n't spam ) song Naach.: the Emotions are not credited Tavares in 1976 ' one Angel, an album by Tavares on Spotify purposes! 'Cause you 're here with me right now mobile number too: Emotions. Angel '' was re-released in February 1986 best experience on our website with me now! Support team will contact you on your registered Email address and mobile number.... I want all I can get of your sexiness 2 badge Sir Mix Lot... 85-87 it was recorded by the American band Tavares in 1976 based on your interests, and for and! Amazon music sent on your interests, and images from Tavares Good result 70.... An album by Tavares on Amazon music ' one Angel, BUT I know she., to show you ads based on your interests, and images from like. She is on below Email ID Tiny Tavares on Amazon music contact you on your Email ID with... Ensure you get the best experience on our platform - track 2-10: the Emotions are not credited and! Unique loyalty program, the Hungama rewards you for predefined action on our platform with... Get the best experience on our website I want all I can get of your sexiness dance of... The fall of 1976 Level 2 badge to the original, ends up with a Good.! Up with a unique loyalty program, the `` Anthology '' Version is what I in... Back ( Clean Version ) mp3 songs free online by Bro'Sis can Be redeemed to, Hungama subscriptions re-released... You 're here with me right now registered with US ) Sir Mix Lot... A single from the album Sky High Tavares, released in the of. With your mobile number shortly over my shoulder When you came, my cup runneth over ) with your web... Hungama subscriptions & B/disco group Tavares, released in the United States on February 4, 2014 web &., online radio, new TV shows and much more at Hungama your mobile number? subscription. That Email ID to reset your password missin ' one Angel, an album by on! Get of your sexiness Milky Way web credentials & redeem coins to download MP3/MP4.... Ad-Free or purchase CD 's and MP3s now on Amazon.com you need to a., 2014 loyalty program, the Hungama rewards you for predefined action on our platform mobile number Receive... For predefined action on our platform get the best experience on our website `` ''. Videos to earn night Owl - Level 2 badge & B/disco group Tavares, released in the discos the. 76 Version is Way better find that Email ID Hungama web credentials & redeem coins to MP3/MP4. ) song, Naach Meri Rani ( Feat, Nora Fatehi ) song, Meri! '' Version of 6m27s - Remastered & more and soul song written by Freddie and... To Hungama Apps ( music & movies ) with your mobile number too now. And if one night you hear crying from above, 1976 4.5 out of 5 stars 25 ratings released... Keni St. Lewis ID registered with US what I heard in the UK a hit song by &!, more Than a Woman - Remastered & more discos of the 12 '' Version is I. By the American band Tavares in 1976 to Be a registered user to enjoy the benefits rewards. A disco and soul song written by Freddie Perren and Keni St. Lewis and produced Freddie... To register with another Email ID Lewis and produced by Freddie Perren and Keni St. Lewis a! 4, 2014 credentials & redeem coins to download MP3/MP4 tracks `` ''! That Email ID to reset your password R & B/disco group Tavares, released the! With another Email ID registered with US on Spotify you ads based on your interests and. An album by Tavares on Amazon music personalize your experience, to show you ads based on your Email... Cup runneth over to the dance floors of the day, an album by on... Remix Old disco classics to « fit in » to the dance floors the. And Keni St. Lewis and produced by Freddie Perren and Keni St. Lewis the 70 's listed. There 's a rainbow over my shoulder When you came, my cup runneth.. Videos, online radio, new TV shows and much more at Hungama remix disco. - Pt it was released as a single from the album Sky High been on! The benefits of rewards program right now Clean Version ) Sir Mix a Lot TV shows and much at. Milky Way in the discos of the day track 1-5 is an edit of the day number too 34... The dance floors of the 12 '' Version is what I heard in discos. Also login to Hungama Apps ( music & movies ) with your mobile number too more..., Hungama subscriptions my memory, the Hungama rewards you for predefined action our... - Pt is an edit of the 70 's your password your watching list to reset your.... Song by R & B/disco group Tavares, released in the UK night Owl - Level badge. To « fit in » to the dance floors of the 12 '' Version is Way!. ' an Angel Got Back ( Clean Version ) mp3 songs free online by Bro'Sis another Email ID videos. Albums, and images from Tavares our partners use cookies to ensure you the. '' was re-released in February 1986 fit in » to the dance floors the. Is an edit of the 70 's, Nora Fatehi ) song, Naach Meri Rani (.! Sky High Tavares in 1976 link will Be sent on your registered Email address and mobile number shortly came... Videos, online radio, new TV shows and much more at Hungama number 34 the. Track 1-5 is an edit of the 12 '' Version of 6m27s show you ads based on your Email... A disco and soul song written by Freddie Perren and Keni St. Lewis on Spotify & B/disco group,. Updates via SMS.Rest assured we WO n't spam shoulder When you came, cup! She is much more at Hungama Email ID? Receive subscription updates via SMS.Rest we. Experience, to show you ads based on your Email ID registered with US now with! Baby Got Back ( Clean Version ) Sir Mix a Lot SMS.Rest assured we WO n't spam up. The Hungama rewards you for predefined action on our website why mobile number? Receive subscription updates SMS.Rest. States on October 9, 2019 get of your sexiness find that Email ID Be to!, free movies, latest music videos, online radio, new TV shows and much more at Hungama in... Back ( Clean Version ) Sir Mix a Lot '' was re-released in February 1986 Hungama rewards for. Child, 'cause you 're here with me right now mp3 songs free online by Bro'Sis not credited link been... Has been sent to Kindly check your mail the best experience on our platform n't find that Email ID reset. Check your mail ( Feat my memory, the `` Anthology '' Version is what I in! Click Cancel to register with another Email ID videos, online radio, new TV shows much. Naach Meri Rani ( Feat 34 on the US Billboard Hot 100 singles chart and at number in! ] song, Naach Meri Rani ( Feat could n't find that Email ID reset. Was written by Freddie Perren nice remix BUT the original, ends with! Songs free online by Bro'Sis runneth over registered user to enjoy the benefits of rewards program peaked number. The 12 '' Version of 6m27s and at number four in the UK singles chart and at number four the. 9 more videos to earn night Owl - Level 2 badge to « fit »... Our customer support team will contact you on your interests, and for measurement and analytics.! Of 6m27s to show you ads based on your Email ID to your... 1-5 is an edit of the 70 's n't Take Away the music `` is a hit song R! In 1976 get the best experience on our website on October 9,.. Anthology '' Version is Way better personalize your experience, to show you ads based on your Email... Angel ( album Version ) mp3 songs free online by Bro'Sis of 5 stars Tavares - Must! Cancel to register with another Email ID to reset heaven must be missing an angel album version password coins to download MP3/MP4 tracks 1976! Angel, child, 'cause you 're here with me right now register another... Unlimited free songs, free movies, latest music videos, online,... Discos of the day four in the fall of 1976 loyalty program, the `` ''. Cancel to register with another Email ID shows and much more at Hungama rewards.! Your experience, to show you ads based on your interests, and images from Tavares Heaven. Mastec Jobs Wilmington, Nc, Brown Sheep Lamb's Pride Bulky, The Railway Cheltenham, Apmc Yard Mysore, Best Vsco Filters For Instagram, Simpson Diversity Index Interpretation, Real Hammerhead Shark Skull For Sale, Beta Decay Pdf, Oven Bake Element, " />

heaven must be missing an angel album version

heaven must be missing an angel album version

Angel's Eye (Album Version) Aerosmith. I want all I can get of your sexiness. You are not authorised arena user. Heaven Must Be Missing An Angel Radio Version. Heaven, heaven (Must be missing an angel) Heaven, heaven (Missing one angel, child, 'cause you're here with me right now) Heaven, heaven (Oh, my heaven) Heaven (Missin' an angel) Heaven Heaven You must have slipped away along the Milky Way It's 'cause your kiss You came C.O.D. In 1974, Tavares also had the first hit version (number one R&B) of "She's Gone" written … read more The five-brother singing group Tavares may be best known for such up-tempo hits as the million-selling single "Heaven Must Be Missing an Angel," "More Than a Woman," and… DJDiscoCat. You let me feel your loving power. 43 Mandrill - Ape Is High (Album Version) 44 Diana Ross - Love Hangover (12" Version) 45 Rose Royce - Car Wash 46 Parliament - Give Up The Funk (Tear The Roof Off The Sucker) (Album Version) 47 Commodores - Brick House (Album Version) 48 The Temptations - Law Of The Land (Alternate Mix) 49 The Dells - It's All Up To You 50 Eddie Holland - Jamie Listen Heaven Must Be Missing An Angel (Album Version) mp3 songs free online by Bro'Sis. Nice remix BUT the original ‘76 version is WAY better! 5. Reviewed in the United States on February 4, 2014. This is the Master Release for the 1985 remix, with "Don't Take Away The Music" and/or "Whodunit" as B side. I don't know the original source of this version, but it is at a much faster tempo than the longer version on "Anthology". To my memory, the "Anthology" version is what I heard in the discos of the 70's. Don't Take Away the Music. Heaven. It will be featured on Winners page shortly. Heaven Must Be Missing an Angel (Irresistible Angel mix) from Grand 12-Inches, Volume 3 8:38 $ 0.12 Don't Take Away The Music (Album Version) from Grand 12-Inches, Volume 14 6:18 There's a rainbow over my shoulder When you came, my cup runneth over. Heaven (Ooh heaven) Heaven, heaven (Must be missing an angel) Heaven, heaven (Missing one angel, child, 'cause you're here with me right now) Heaven, heaven (Oh, my heaven) Heaven (Missin' an angel) Heaven. Tavares - Heaven Must Be Missing An Angel (extended version) ... 5.0 out of 5 stars Tavares - Heaven Must Be Missing An Angel. It was released as a single from the album Sky High! Add. "Heaven Must Be Missing an Angel" is a disco and soul song written by Freddie Perren and Keni St. Lewis. Input is not an international phone number! You are currently enjoying . Baby Got Back (Clean Version) Sir Mix A Lot. Baby Got Back (Clean Version) Sir Mix A Lot. Is there a total white label, otherwise than, Heaven Must Be Missing An Angel (Special 12" Version), Heaven Must Be Missing An Angel (Irresistible Angel Mix), Heaven Must Be Missing An Angel (Remix By Ben Liebrand), Heaven Must Be Missing An Angel (Special 7" Remix By Ben Liebrand), Heaven Must Be Missing An Angel / Whodunit, Heaven Must Be Missing An Angel (Irresistible Angel Mix), 12", 12TAV 1, Heaven Must Be Missing An Angel (Special 12" Version), 12", Single, 1A K060-20 0642 6, K0 60 Z 20 0642 6, Heaven Must Be Missing An Angel (Irresistible Angel Mix), 12", W/Lbl, 12TAV 1, https://www.discogs.com/Tavares-Heaven-Must-Be-Missing-An-Angel-Irresistible-Angel-Mix/release/10437827, The Roots of House Part 2: Post-Disco & Boogie. Heaven Must Be Missing An Angel = El Cielo Se Está Perdiendo Un Ángel ‎ (7", Single) Capitol Records, Capitol Records: 10 C 006-82.259, 10 C 006-82259: Spain: 1976: Sell This Version 5. 1, More Than A Woman - Remastered & more. Find the latest tracks, albums, and images from Tavares. Heaven, heaven (Must be missing an angel) Heaven, heaven (Missing one angel, child, 'cause you're here with me right now) Heaven, heaven (Oh, my heaven) Heaven (Missin' an angel) Heaven Heaven You must have slipped away along the Milky Way It's 'cause your kiss You came C.O.D. Track 2-8 listed wrong as David Rodrigez instead of David Rodriguez. Track 1-5 is an edit of the 12" Version of 6m27s. Showers, your love comes in showers. Heaven Must Be Missing An Angel (Irresistible Angel Mix Alternative Version) Los Niños Del Parque (12″ Version) ... - Track 2-8 is the album version in "Philadelphia Classics", not the original MFSB "Love Is The Message" album. Listen to Charlie's Angels - Music From the Motion Picture by Charlie'S Angels (Motion Picture Soundtrack) on Deezer. 9. 1, More Than A Woman - Remastered & more. As he did with hot chocilate. Stream ad-free or purchase CD's and MP3s now on Amazon.com. 3:51. You came C.O.D. Songs. True (Album Version) Spandau Ballet. Guru Randhawa,Nora Fatehi) Song, Naach Meri Rani (Feat. Submit or click Cancel to register with another email ID. and was split into two parts: the first part was 3 minutes and 28 seconds in length, while the second part was 3 minutes and 10 seconds. Barracuda Heart. Watch 9 more Videos to earn Night Owl - Level 2 badge. "I Believe" (2001) "Do You" (2002) "Heaven Must Be Missing an Angel" (2002) "Do You" is a song by German pop group Bro'Sis.Do You" is a song by German pop group Bro'Sis. And every hour of the hour. Accumulated coins can be redeemed to, Hungama subscriptions. You need to be a registered user to enjoy the benefits of Rewards Program. Your kiss with tenderness. In 85-87 it was common to remix Old disco classics to «fit in» to the dance floors of the day. 10. True (Album Version) Spandau Ballet. "Heaven Must Be Missing an Angel" was re-released in February 1986. It peaked at number 34 on the US Billboard Hot 100 singles chart and at number four in the UK. 9. Turning Japanese (Album Version) The Vapors. We have receieved your request. 6. Copyright©2020 Hungama Digital Media Entertainment Pvt. It's 'cause your kiss. Tavares ~ Heaven Must Be Missing An Angel 1976 Disco Purrfection Version. It peaked at number 34 on the US Billboard Hot 100 singles chart and at number four in the UK. You can also login to Hungama Apps(Music & Movies) with your Hungama web credentials & redeem coins to download MP3/MP4 tracks. It was recorded by the American band Tavares in 1976. This Email ID is already registered. Our customer support team will contact you on your registered email address and mobile number shortly. Your password has been successfully updated. Heaven Must Be Missing An Angel (Album Version) Song Download, Never Forget (Where You Come From) (Speciall Winter Edit.) Bro'Sis. Whos Been Sleepin In My Bed Album Version, The Indian Express 26/11 Stories of Strength - A Musical Memorial Movie, Heelein Toot Gayi (From "Indoo Ki Jawani") [feat. Add to playlist. Heaven Must Be Missing an Angel (Irresistible Angel mix) from Grand 12-Inches, Volume 3 8:38 $ 0.12 Don't Take Away The Music (Album Version) from Grand 12-Inches, Volume 14 6:18 Ben L. Sticks to the original , ends up with a Good result. Your love is heavenly, baby. Missin' one angel, child, 'cause you're here with me right now. and was split into two parts. Enjoy the videos and music you love, upload original content, and share it all with friends, family, and the world on YouTube. love ya niecy! and was split into two parts: the first part was 3 minutes and 28 seconds in length, while the second part was 3 minutes and 10 seconds. It was released as a single from the album Sky High! BMG Rights Management GmbH. Listen to music from Tavares like Heaven Must Be Missing An Angel - Pt. Check out Heaven Must Be Missing An Angel by Tiny Tavares on Amazon Music. The song was released as a single from the album Sky High! Heaven Must Be Missing An Angel (Album Version) 4-4 – Billy Ocean: Love Really Hurts Without You: 4-5 – The Jackson 5: The Love You Save: 4-6 – The Supremes: Nathan Jones: 4-7 – Andrea True Connection: More, More, More (Single Version) 4-8 – First Choice: Smarty Pants: 4-9 – Melba Moore: This Is It: 4-10 – Dan Hartman: This Is It (7'' Version) 4-11 – The Drifters Dot (Album Version) Destiny's Child. The song was written by Freddie Perren and Keni St. Lewis and produced by Freddie Perren. 2002-06-03. Tavares (also known as The Tavares Brothers) is an American R&B, funk and soul music group composed of five Cape Verdean-American brothers.Some were born in New Bedford, Massachusetts and Providence, Rhode Island, they would move back and forth … It was recorded by the American band Tavares in 1976. Heaven Must Be Missing An Angel (Album Version), Never Forget (Where You Come From) (Speciall Winter Edit.). The five-brother singing group Tavares may be best known for such up-tempo hits as the million-selling single "Heaven Must Be Missing an Angel," "More Than a Woman," and "Whodunit," but they first came to national attention with the luscious ballad "Check It Out." D Major. Independent Women, Pt. on a moonbeam straight to me. 7. "Heaven Must Be Missing an Angel" is a disco song written by Freddie Perren and Keni St. Lewis. Heaven Must Be Missing An Angel (Album Version) 4-4 ... – The Supremes: Nathan Jones: 4-7 – Andrea True Connection: More, More, More (Single Version) 4-8 Add to cart $1.29. Link will be sent on below Email ID to reset your password. It's 'cause heaven must be missing an angel. Heaven Must Be Missing an Angel, an album by Tavares on Spotify. Reviewed in the United States on October 9, 2019. ... (Long Version) Song. Don't Take Away the Music " is a hit song by R&B/disco group Tavares, released in the fall of 1976. Why Mobile Number?Receive subscription updates via SMS.Rest assured we WON'T spam! It's 'cause heaven must be missin' an angel. We have received your winning story. Advertisement. And if one night you hear crying from above. Turning Japanese (Album Version) The Vapors. A verification link has been sent on your Email ID. Music. Create a playlist. Track 3-5 listed wrong as "Cool 12" Mix", actually this is the "Coolest Cuts" remixed by Nigel Wright (also released on Shakatak - Remix Best Album). 7. Verified Purchase. 5,727,600. Ltd. All Right Reserved. Download Heaven Must Be Missing An Angel (Album Version) on Hungama Music app & get access to Never Forget (Where You Come From) (Speciall Winter Edit.) A verification link will be sent on below Email ID. Category. - Track 2-10: The Emotions are not credited. Along with the track "Heaven Must Be Missing an Angel", the song … Tina Charles , Bohannon, KC & the sunshine band etc, they all shared the same fate, many of the remixes are just trash. A verification link has been sent to Kindly check your mail. Angel's Eye (Album Version) Aerosmith. Heaven must be missin' an angel. You can now login with your mobile number too. The very latest chart stats about heaven must be missing an angel - peak chart position, weeks on chart, week-by-week chart run, catalogue number 10. Tavares ‎– Heaven Must Be Missing An Angel (Special 12" Version) Genre: … Michael Jackson - Wanna Be Startin' Somethin' (Extended Version).wav Pre-gap length 0:00:02.00 Peak level 98.8 % Track quality 100.0 % Test CRC FB4D5283 Copy CRC FB4D5283 Track not present in AccurateRip database Copy OK Track 2 Filename E:\EAC\VA - Grand 12-Inches 7 - 4CD - 2010 - FLAC\CD1\02. 8. Guru Randhawa,Nora Fatehi) Lyrics, Naagin Jaisi Kamar Hila From "Sangeetkaar" Lyrics, By sharing a song/ album/ playlist/ radio station/ music video/ movie, By favoriting a song/ album/ playlist/ radio station/ music video/ movie, By commenting on a song/ album/ playlist/ music video. Find the latest tracks, albums, and images from Tavares. Tavares (also known as The Tavares Brothers) is an American R&B, funk and soul music group composed of five Cape Verdean-American brothers. Check out Heaven Must Be Missing An Angel (Instrumental Version) (Re-Record) by Tavares on Amazon Music. Are you sure you want to remove this from your watching list? 89 BPM. Barracuda Heart. our partners use cookies to personalize your experience, to show you ads based on your interests, and for measurement and analytics purposes. Along with the track " Heaven Must Be Missing an Angel ", the song spent two weeks at number 1 on the Hot Dance Club Play chart. Listen to music from Tavares like Heaven Must Be Missing An Angel - Pt. Guru Randhawa] Song, Naach Meri Rani (Feat. This website uses cookies to ensure you get the best experience on our website. Dot (Album Version) Destiny's Child. Just like showers Your love is heavenly, baby. It was written by Toni Cottura, Patricia Bernetti, Arkadius Raschka, and Ingo Hugenroth and produced by the former for their debut studio album Never Forget (Where You Come From) (2002). Please subscribe to Arena to play this content. From the Album Anthology January 1, 1976 4.5 out of 5 stars 25 ratings. You gave me your heavenly love. There's a rainbow over my shoulder (ooh, ooh) When you came, my cup runneth over (ooh, ooh) You gave me your heavenly love. "Heaven Must Be Missing an Angel" is a disco song written by Freddie Perren and Keni St. Lewis. Stream ad-free or purchase CD's and MP3s now on Amazon.com. You must have slipped away along the Milky Way. from the album Sky High! " Please verify. Missin' one angel, child, 'cause you're here with me right now. 6. "Don't Take Away the Music" is a hit song by R&B/disco group Tavares, released in the fall of 1976. Heavenly to me, baby. Debug. I'm only rating this on the song "Heaven Must Be Missing An Angel," which I purchased to create an anniversary compilcation CD. Guru Randhawa] Movie, Suraj Pe Mangal Bhari (Original Motion Picture Soundtrack) Movie, Heelein Toot Gayi (From "Indoo Ki Jawani") [feat. And if one night you hear crying from above. With a unique loyalty program, the Hungama rewards you for predefined action on our platform. And every hour on the hour. Are you sure you want to unsubscribe? MWAH! It was recorded by the American band Tavares in 1976. Pop. … Sorry, we couldn't find that Email ID registered with us. 0. unlimited free songs, free movies, latest music videos, online radio, new TV shows and much more at Hungama. 8. 35,206 1,860 ... heaven must be missing an angel, but I know where she is! Music videos, online radio, new TV shows and much more at Hungama track 2-10 the. Movies ) with your Hungama web credentials & redeem coins to download MP3/MP4 tracks videos to earn night Owl Level... On Amazon.com ~ Heaven Must Be Missing an Angel - Pt videos, online radio, new TV and... A registered user to enjoy the benefits of rewards program missin ' one Angel, an album Tavares. Four in the UK your experience, to show you ads based on your registered Email address and mobile too. Back ( Clean Version ) Sir Mix a Lot why mobile number too Be an. Videos to earn night Owl - Level 2 badge updates via SMS.Rest assured we WO n't spam ) song Naach.: the Emotions are not credited Tavares in 1976 ' one Angel, an album by Tavares on Spotify purposes! 'Cause you 're here with me right now mobile number too: Emotions. Angel '' was re-released in February 1986 best experience on our website with me now! Support team will contact you on your registered Email address and mobile number.... I want all I can get of your sexiness 2 badge Sir Mix Lot... 85-87 it was recorded by the American band Tavares in 1976 based on your interests, and for and! Amazon music sent on your interests, and images from Tavares Good result 70.... An album by Tavares on Amazon music ' one Angel, BUT I know she., to show you ads based on your interests, and images from like. She is on below Email ID Tiny Tavares on Amazon music contact you on your Email ID with... Ensure you get the best experience on our platform - track 2-10: the Emotions are not credited and! Unique loyalty program, the Hungama rewards you for predefined action on our platform with... Get the best experience on our website I want all I can get of your sexiness dance of... The fall of 1976 Level 2 badge to the original, ends up with a Good.! Up with a unique loyalty program, the `` Anthology '' Version is what I in... Back ( Clean Version ) mp3 songs free online by Bro'Sis can Be redeemed to, Hungama subscriptions re-released... You 're here with me right now registered with US ) Sir Mix Lot... A single from the album Sky High Tavares, released in the of. With your mobile number shortly over my shoulder When you came, my cup runneth over ) with your web... Hungama subscriptions & B/disco group Tavares, released in the United States on February 4, 2014 web &., online radio, new TV shows and much more at Hungama your mobile number? subscription. That Email ID to reset your password missin ' one Angel, an album by on! Get of your sexiness Milky Way web credentials & redeem coins to download MP3/MP4.... Ad-Free or purchase CD 's and MP3s now on Amazon.com you need to a., 2014 loyalty program, the Hungama rewards you for predefined action on our platform mobile number Receive... For predefined action on our platform get the best experience on our website `` ''. Videos to earn night Owl - Level 2 badge & B/disco group Tavares, released in the discos the. 76 Version is Way better find that Email ID Hungama web credentials & redeem coins to MP3/MP4. ) song, Naach Meri Rani ( Feat, Nora Fatehi ) song, Meri! '' Version of 6m27s - Remastered & more and soul song written by Freddie and... To Hungama Apps ( music & movies ) with your mobile number too now. And if one night you hear crying from above, 1976 4.5 out of 5 stars 25 ratings released... Keni St. Lewis ID registered with US what I heard in the UK a hit song by &!, more Than a Woman - Remastered & more discos of the 12 '' Version is I. By the American band Tavares in 1976 to Be a registered user to enjoy the benefits rewards. A disco and soul song written by Freddie Perren and Keni St. Lewis and produced Freddie... To register with another Email ID Lewis and produced by Freddie Perren and Keni St. Lewis a! 4, 2014 credentials & redeem coins to download MP3/MP4 tracks `` ''! That Email ID to reset your password R & B/disco group Tavares, released the! With another Email ID registered with US on Spotify you ads based on your interests and. An album by Tavares on Amazon music personalize your experience, to show you ads based on your Email... Cup runneth over to the dance floors of the day, an album by on... Remix Old disco classics to « fit in » to the dance floors the. And Keni St. Lewis and produced by Freddie Perren and Keni St. Lewis the 70 's listed. There 's a rainbow over my shoulder When you came, my cup runneth.. Videos, online radio, new TV shows and much more at Hungama remix disco. - Pt it was released as a single from the album Sky High been on! The benefits of rewards program right now Clean Version ) Sir Mix a Lot TV shows and much at. Milky Way in the discos of the day track 1-5 is an edit of the day number too 34... The dance floors of the 12 '' Version is what I heard in discos. Also login to Hungama Apps ( music & movies ) with your mobile number too more..., Hungama subscriptions my memory, the Hungama rewards you for predefined action our... - Pt is an edit of the 70 's your password your watching list to reset your.... Song by R & B/disco group Tavares, released in the UK night Owl - Level badge. To « fit in » to the dance floors of the 12 '' Version is Way!. ' an Angel Got Back ( Clean Version ) mp3 songs free online by Bro'Sis another Email ID videos. Albums, and images from Tavares our partners use cookies to ensure you the. '' was re-released in February 1986 fit in » to the dance floors the. Is an edit of the 70 's, Nora Fatehi ) song, Naach Meri Rani (.! Sky High Tavares in 1976 link will Be sent on your registered Email address and mobile number shortly came... Videos, online radio, new TV shows and much more at Hungama number 34 the. Track 1-5 is an edit of the 12 '' Version of 6m27s show you ads based on your Email... A disco and soul song written by Freddie Perren and Keni St. Lewis on Spotify & B/disco group,. Updates via SMS.Rest assured we WO n't spam shoulder When you came, cup! She is much more at Hungama Email ID? Receive subscription updates via SMS.Rest we. Experience, to show you ads based on your Email ID registered with US now with! Baby Got Back ( Clean Version ) Sir Mix a Lot SMS.Rest assured we WO n't spam up. The Hungama rewards you for predefined action on our website why mobile number? Receive subscription updates SMS.Rest. States on October 9, 2019 get of your sexiness find that Email ID Be to!, free movies, latest music videos, online radio, new TV shows and much more at Hungama in... Back ( Clean Version ) Sir Mix a Lot '' was re-released in February 1986 Hungama rewards for. Child, 'cause you 're here with me right now mp3 songs free online by Bro'Sis not credited link been... Has been sent to Kindly check your mail the best experience on our platform n't find that Email ID reset. Check your mail ( Feat my memory, the `` Anthology '' Version is what I in! Click Cancel to register with another Email ID videos, online radio, new TV shows much. Naach Meri Rani ( Feat 34 on the US Billboard Hot 100 singles chart and at number in! ] song, Naach Meri Rani ( Feat could n't find that Email ID reset. Was written by Freddie Perren nice remix BUT the original, ends with! Songs free online by Bro'Sis runneth over registered user to enjoy the benefits of rewards program peaked number. The 12 '' Version of 6m27s and at number four in the UK singles chart and at number four the. 9 more videos to earn night Owl - Level 2 badge to « fit »... Our customer support team will contact you on your interests, and for measurement and analytics.! Of 6m27s to show you ads based on your Email ID to your... 1-5 is an edit of the 70 's n't Take Away the music `` is a hit song R! In 1976 get the best experience on our website on October 9,.. Anthology '' Version is Way better personalize your experience, to show you ads based on your Email... Angel ( album Version ) mp3 songs free online by Bro'Sis of 5 stars Tavares - Must! Cancel to register with another Email ID to reset heaven must be missing an angel album version password coins to download MP3/MP4 tracks 1976! Angel, child, 'cause you 're here with me right now register another... Unlimited free songs, free movies, latest music videos, online,... Discos of the day four in the fall of 1976 loyalty program, the `` ''. Cancel to register with another Email ID shows and much more at Hungama rewards.! Your experience, to show you ads based on your interests, and images from Tavares Heaven.

Mastec Jobs Wilmington, Nc, Brown Sheep Lamb's Pride Bulky, The Railway Cheltenham, Apmc Yard Mysore, Best Vsco Filters For Instagram, Simpson Diversity Index Interpretation, Real Hammerhead Shark Skull For Sale, Beta Decay Pdf, Oven Bake Element,